Home of the Squeezebox™ & Transporter® network music players.
Page 1 of 5 123 ... LastLast
Results 1 to 10 of 41
  1. #1
    Junior Member
    Join Date
    Sep 2018
    Posts
    20

    Squeezebox server 8.2 single flac image play

    Hi.
    I use Vortexbox on the NUC. After update Squeezebox server 8.2, PicorePlayer don't play single flac image+cue files as tracks. As only single track plays.
    There was no problem before with LMS 7.7.6
    Has anyone else encountered this problem with LMS 8.2? How can I fix this problem?
    Music Server (Store): LMS on VortexBox 2.5 (BETA) --- [Gigabyte GB-BACE-3000 Intel N3000 1,04 GHz + 2GB Ram + 1TB SSD] [Power: Belleson 12V]
    Streamer/Player 01: PicoreP 7.0 + Pi2 + HifiBerry Digi+ Pro --- [Power: Belleson 5V]
    Streamer/Player 02: Daphile on TransportPC S/PDIF -- [ESI Juli@ digital part] [PC Power: Belleson 12V - Card Power: Belleson 5V]
    Switch: Zyxel GS105 V2 --- [Power: Belleson 5V]
    DAC: TDA1543 NOS 16Bit R-2R DAC3 --- [Power: 9V Battery]

  2. #2
    Senior Member
    Join Date
    Apr 2005
    Location
    UK/London
    Posts
    4,176
    There were changes made to how some .cue files are processed.

    Can you post the header and first track from your .cue files and say what created them?
    Paul Webster
    http://dabdig.blogspot.com
    Author of "Now Playing" plugins covering Radio France (FIP etc), PlanetRadio (Bauer - Kiss, Absolute, Scala, JazzFM etc), KCRW, Supla Finland, ABC Australia, CBC/Radio-Canada and RTE Ireland

  3. #3
    Junior Member
    Join Date
    Sep 2018
    Posts
    20
    REM GENRE Greek
    REM DATE 2000
    REM DISCID 15103412
    REM COMMENT ExactAudioCopy v0.95b4
    PERFORMER "Melina Kana"
    TITLE "Portrait"
    FILE "CDImage.flac" WAVE
    TRACK 01 AUDIO
    TITLE "Alkoolika Stichakia"
    ISRC 000000000000
    INDEX 01 00:00:00
    TRACK 02 AUDIO
    TITLE "Na Valo Ta Metaksota"
    ISRC 000000000000
    INDEX 00 03:18:50
    INDEX 01 03:20:52

    This is the header and firs two tracks of cue file.
    Music Server (Store): LMS on VortexBox 2.5 (BETA) --- [Gigabyte GB-BACE-3000 Intel N3000 1,04 GHz + 2GB Ram + 1TB SSD] [Power: Belleson 12V]
    Streamer/Player 01: PicoreP 7.0 + Pi2 + HifiBerry Digi+ Pro --- [Power: Belleson 5V]
    Streamer/Player 02: Daphile on TransportPC S/PDIF -- [ESI Juli@ digital part] [PC Power: Belleson 12V - Card Power: Belleson 5V]
    Switch: Zyxel GS105 V2 --- [Power: Belleson 5V]
    DAC: TDA1543 NOS 16Bit R-2R DAC3 --- [Power: 9V Battery]

  4. #4
    Junior Member
    Join Date
    Sep 2018
    Posts
    20
    Has anyone else encountered this problem?
    Music Server (Store): LMS on VortexBox 2.5 (BETA) --- [Gigabyte GB-BACE-3000 Intel N3000 1,04 GHz + 2GB Ram + 1TB SSD] [Power: Belleson 12V]
    Streamer/Player 01: PicoreP 7.0 + Pi2 + HifiBerry Digi+ Pro --- [Power: Belleson 5V]
    Streamer/Player 02: Daphile on TransportPC S/PDIF -- [ESI Juli@ digital part] [PC Power: Belleson 12V - Card Power: Belleson 5V]
    Switch: Zyxel GS105 V2 --- [Power: Belleson 5V]
    DAC: TDA1543 NOS 16Bit R-2R DAC3 --- [Power: 9V Battery]

  5. #5
    Babelfish's Best Boy mherger's Avatar
    Join Date
    Apr 2005
    Location
    Switzerland
    Posts
    20,541

    Squeezebox server 8.2 single flacimage play

    > Has anyone else encountered this problem?

    Make sure you don't have both embedded and external CUE sheets.

  6. #6
    Junior Member
    Join Date
    Sep 2018
    Posts
    20
    I removed the tags and embedded CUE sheet in flac file. There is only CUE sheet file in the clastor. But didn't solved problem.
    Unfortunately, this problem started after the LMS 8.2 update.
    Music Server (Store): LMS on VortexBox 2.5 (BETA) --- [Gigabyte GB-BACE-3000 Intel N3000 1,04 GHz + 2GB Ram + 1TB SSD] [Power: Belleson 12V]
    Streamer/Player 01: PicoreP 7.0 + Pi2 + HifiBerry Digi+ Pro --- [Power: Belleson 5V]
    Streamer/Player 02: Daphile on TransportPC S/PDIF -- [ESI Juli@ digital part] [PC Power: Belleson 12V - Card Power: Belleson 5V]
    Switch: Zyxel GS105 V2 --- [Power: Belleson 5V]
    DAC: TDA1543 NOS 16Bit R-2R DAC3 --- [Power: 9V Battery]

  7. #7
    Senior Member
    Join Date
    Oct 2005
    Location
    Ireland
    Posts
    20,416
    Quote Originally Posted by ionian View Post
    I removed the tags and embedded CUE sheet in flac file. There is only CUE sheet file in the clastor. But didn't solved problem.
    Unfortunately, this problem started after the LMS 8.2 update.
    Did it work in 7.9.1 ? or did you jump from 7.7.6 to 8.2 ?

    CUE file format are somewhat unregulated. There is an option in EAC to generate "unsupported" CUE file format. The problem usually relates to the use of the "INDEX" .

    IIRC Prior to a change in Oct 2020 - these cue file were processed incorrectly and but by accident managed to be playable.
    The change initially broke the "ignoring" of these files so it took a few iterations to have new change working and also "ignore" unsupported variations.

    However, A similar report to yours was posted in Jan but was unable to follow through in determining exact cause.

    I don't use CUE file so each time this sort of issue appears, it take a while to set up test to try tr replicate what is happening.
    At the moment need to confirm whether your cue files are of the "supported" variety.

  8. #8
    Junior Member
    Join Date
    Sep 2018
    Posts
    20
    Hi,
    Thank you for your detailed explanation. I'm jumping from 7.7.6 to 8.2

    Problem not solved. However, there was a situation like this:
    If I set the flac decoding setting to native, the cue files plays.
    Name:  cue.jpg
Views: 147
Size:  4.7 KB

    But I want it to be converted to PCM on the server. In this case, CUE files are not read:
    Name:  cue2.jpg
Views: 145
Size:  4.6 KB

    I couldn't decide what to do. Should I convert all of my image flac files to tarks? Or should I wait for the problem to be resolved in new update?
    Music Server (Store): LMS on VortexBox 2.5 (BETA) --- [Gigabyte GB-BACE-3000 Intel N3000 1,04 GHz + 2GB Ram + 1TB SSD] [Power: Belleson 12V]
    Streamer/Player 01: PicoreP 7.0 + Pi2 + HifiBerry Digi+ Pro --- [Power: Belleson 5V]
    Streamer/Player 02: Daphile on TransportPC S/PDIF -- [ESI Juli@ digital part] [PC Power: Belleson 12V - Card Power: Belleson 5V]
    Switch: Zyxel GS105 V2 --- [Power: Belleson 5V]
    DAC: TDA1543 NOS 16Bit R-2R DAC3 --- [Power: 9V Battery]

  9. #9
    Senior Member chill's Avatar
    Join Date
    Mar 2007
    Location
    Nottingham, UK
    Posts
    2,098
    The majority of my library is in the form of album FLAC + CUE files. Many (most?) of my CUE files also have INDEX 00 and INDEX 01, but as BPA points out these have never caused me a problem. I'm now running LMS 8.2 and everything still works as before.

    Just to be sure - have you done a complete 'clear and rescan'?

  10. #10
    Senior Member chill's Avatar
    Join Date
    Mar 2007
    Location
    Nottingham, UK
    Posts
    2,098
    Quote Originally Posted by ionian View Post
    REM GENRE Greek
    REM DATE 2000
    REM DISCID 15103412
    REM COMMENT ExactAudioCopy v0.95b4
    PERFORMER "Melina Kana"
    TITLE "Portrait"
    FILE "CDImage.flac" WAVE
    TRACK 01 AUDIO
    TITLE "Alkoolika Stichakia"
    ISRC 000000000000
    INDEX 01 00:00:00
    TRACK 02 AUDIO
    TITLE "Na Valo Ta Metaksota"
    ISRC 000000000000
    INDEX 00 03:18:50
    INDEX 01 03:20:52

    This is the header and firs two tracks of cue file.

    Just a thought - all my CUE files have exactly the same name as the corresponding FLAC file (apart from the extension of course). I notice that your example lists the flac file as "CDImage.flac". I can't recall whether this is important, but you could try renaming your FLAC file in this example to match the CUE filename to see if it makes a difference.

Tags for this Thread

Posting Permissions

  • You may not post new threads
  • You may not post replies
  • You may not post attachments
  • You may not edit your posts
  •