Home of the Squeezebox™ & Transporter® network music players.
Results 1 to 2 of 2
  1. #1

    cue files and artist display problem

    Hi pple,

    I use PCP 7 & LMS 8.1.1 on RPI 4B
    My music files are flac one file per album + one cue sheet in a folder.
    Thoses files are stored on an usb attached HDD to RPI.
    I encountered problem to display correctly album under the album "PERFORMER" when there is featuring in the album.

    i.e :

    Code:
    TITLE "Lust for Life"
    PERFORMER "Lana Del Rey"
    CATALOG 0602557589924
    REM GENRE "Pop"
    REM DATE "2017"
    REM DISCNUMBER 01
    REM TOTALDISCS 01
    REM DISCID D810E610
    REM REPLAYGAIN_ALBUM_GAIN -9.09 dB
    REM REPLAYGAIN_ALBUM_PEAK 0.999969
    FILE "Lana Del Rey - Lust for Life (2017) [FLAC].flac" WAVE
      TRACK 01 AUDIO
        TITLE "Love"
        PERFORMER "Lana Del Rey"
        ISRC GBUM71604605
        REM REPLAYGAIN_TRACK_GAIN -7.89 dB
        REM REPLAYGAIN_TRACK_PEAK 0.965851
        INDEX 01 00:00:00
      TRACK 02 AUDIO
        TITLE "Lust for Life"
        PERFORMER "Lana Del Rey feat. The Weeknd"
        ISRC GBUM71701127
        REM REPLAYGAIN_TRACK_GAIN -10.42 dB
        REM REPLAYGAIN_TRACK_PEAK 0.997803
        INDEX 01 04:33:50
      TRACK 03 AUDIO
        TITLE "13 Beaches"
        PERFORMER "Lana Del Rey"
        ISRC GBUM71701636
        REM REPLAYGAIN_TRACK_GAIN -7.18 dB
        REM REPLAYGAIN_TRACK_PEAK 0.989410
        INDEX 01 08:57:49
      TRACK 04 AUDIO
        TITLE "Cherry"
        PERFORMER "Lana Del Rey"
        ISRC GBUM71702621
        REM REPLAYGAIN_TRACK_GAIN -8.93 dB
        REM REPLAYGAIN_TRACK_PEAK 0.988739
        INDEX 01 13:53:16
      TRACK 05 AUDIO
        TITLE "White Mustang"
        PERFORMER "Lana Del Rey"
        ISRC GBUM71702622
        REM REPLAYGAIN_TRACK_GAIN -8.34 dB
        REM REPLAYGAIN_TRACK_PEAK 0.988617
        INDEX 01 16:54:10
      TRACK 06 AUDIO
        TITLE "Summer Bummer"
        PERFORMER "Lana Del Rey feat. A$AP Rocky & Playboi Carti"
        ISRC GBUM71703299
        REM REPLAYGAIN_TRACK_GAIN -8.29 dB
        REM REPLAYGAIN_TRACK_PEAK 0.990234
        INDEX 01 19:38:62
      TRACK 07 AUDIO
        TITLE "Groupie Love"
        PERFORMER "Lana Del Rey feat. A$AP Rocky"
        ISRC GBUM71703296
        REM REPLAYGAIN_TRACK_GAIN -10.20 dB
        REM REPLAYGAIN_TRACK_PEAK 0.988739
        INDEX 01 23:59:37
      TRACK 08 AUDIO
        TITLE "In My Feelings"
        PERFORMER "Lana Del Rey"
        ISRC GBUM71702623
        REM REPLAYGAIN_TRACK_GAIN -9.73 dB
        REM REPLAYGAIN_TRACK_PEAK 0.999969
        INDEX 01 28:23:42
      TRACK 09 AUDIO
        TITLE "Coachella - Woodstock in My Mind"
        PERFORMER "Lana Del Rey"
        ISRC GBUM71702139
        REM REPLAYGAIN_TRACK_GAIN -9.55 dB
        REM REPLAYGAIN_TRACK_PEAK 0.988831
        INDEX 01 32:22:19
      TRACK 10 AUDIO
        TITLE "God Bless America - And All the Beautiful Women in It"
        PERFORMER "Lana Del Rey"
        ISRC GBUM71701684
        REM REPLAYGAIN_TRACK_GAIN -9.75 dB
        REM REPLAYGAIN_TRACK_PEAK 0.988708
        INDEX 01 36:40:49
      TRACK 11 AUDIO
        TITLE "When the World Was at War We Kept Dancing"
        PERFORMER "Lana Del Rey"
        ISRC GBUM71701858
        REM REPLAYGAIN_TRACK_GAIN -9.48 dB
        REM REPLAYGAIN_TRACK_PEAK 0.988770
        INDEX 01 41:17:07
      TRACK 12 AUDIO
        TITLE "Beautiful People Beautiful Problems"
        PERFORMER "Lana Del Rey feat. Stevie Nicks"
        ISRC GBUM71701691
        REM REPLAYGAIN_TRACK_GAIN -9.53 dB
        REM REPLAYGAIN_TRACK_PEAK 0.988617
        INDEX 01 45:52:54
      TRACK 13 AUDIO
        TITLE "Tomorrow Never Came"
        PERFORMER "Lana Del Rey feat. Sean Ono Lennon"
        ISRC GBUM71701634
        REM REPLAYGAIN_TRACK_GAIN -9.43 dB
        REM REPLAYGAIN_TRACK_PEAK 0.989349
        INDEX 01 50:06:19
      TRACK 14 AUDIO
        TITLE "Heroin"
        PERFORMER "Lana Del Rey"
        ISRC GBUM71702624
        REM REPLAYGAIN_TRACK_GAIN -8.48 dB
        REM REPLAYGAIN_TRACK_PEAK 0.990906
        INDEX 01 55:13:59
      TRACK 15 AUDIO
        TITLE "Change"
        PERFORMER "Lana Del Rey"
        ISRC GBUM71702650
        REM REPLAYGAIN_TRACK_GAIN -7.40 dB
        REM REPLAYGAIN_TRACK_PEAK 0.988586
        INDEX 00 61:08:00
        INDEX 01 61:08:72
      TRACK 16 AUDIO
        TITLE "Get Free"
        PERFORMER "Lana Del Rey"
        ISRC GBUM71702625
        REM REPLAYGAIN_TRACK_GAIN -8.69 dB
        REM REPLAYGAIN_TRACK_PEAK 0.999969
        INDEX 01 66:30:12
    In this album lana have some featuring, if i use use single list behavior + group compilation artist, this album is moved to various artist.
    If i use single list + compilation under each artist i have a dispersed album.
    I would like LMS to group album under the first PERFORMER (album performer - here Lana del rey) and not under the track PERFORMER
    How could i resolve this please ?
    Last edited by a491765; 2021-01-24 at 00:51.

  2. #2
    Up please, anyone have a clue how to did this ?

Posting Permissions

  • You may not post new threads
  • You may not post replies
  • You may not post attachments
  • You may not edit your posts
  •