Announcement

Collapse
No announcement yet.

SSL issues

Collapse
X
 
  • Filter
  • Time
  • Show
Clear All
new posts

    SSL issues

    > I don't know what's changed on my system, but I can no longer stream
    > https://icecast.teveo.cu/9Rnrbjzq#slim:noscan=1 from LMS.
    > It's as if SSL isn't supported.
    >
    > Running LMS 8.0.0 on Synology.


    LMS 8.0 is pretty old - as might be the Synology Perl. SSL has seen
    major changes in recent years, incl. invalidation of several older root
    certificates. If your libraries aren't up to date they can stop working
    with more recent servers.
    RadioFeeds UK & Ireland.. an up-to-date radio directory for your Squeezebox/Transporter/UE Smart Radio.. available from the mysqueezebox.com App Gallery.
    Bonus: our RadioFeeds LMS plugin also lists AAC and the BBC's high-quality HLS streams on top of what's available in our MSB app.
    Now with over 1000 registered users, it's available for Logitech Media Server (and Squeezebox Server, SqueezeCenter and SlimServer).
    Click for more info: http://www.radiofeeds.co.uk/squeeze

    #2
    SSL issues

    I don't know what's changed on my system, but I can no longer stream https://icecast.teveo.cu/9Rnrbjzq#slim:noscan=1 from LMS.
    It's as if SSL isn't supported.

    Running LMS 8.0.0 on Synology.

    Is it working for everyone else?
    RadioFeeds UK & Ireland.. an up-to-date radio directory for your Squeezebox/Transporter/UE Smart Radio.. available from the mysqueezebox.com App Gallery.
    Bonus: our RadioFeeds LMS plugin also lists AAC and the BBC's high-quality HLS streams on top of what's available in our MSB app.
    Now with over 1000 registered users, it's available for Logitech Media Server (and Squeezebox Server, SqueezeCenter and SlimServer).
    Click for more info: http://www.radiofeeds.co.uk/squeeze

    Comment


      #3
      Could the URL have changed ?
      What is the station Name ? teveo.cu list many stations

      Why the use of "noscan=1" - this is a workaround for a geo-lock on station when playing use mysqueezebox.com

      Comment


        #4
        Originally posted by bpa View Post
        Could the URL have changed ?
        What is the station Name ? teveo.cu list many stations

        Why the use of "noscan=1" - this is a workaround for a geo-lock on station when playing use mysqueezebox.com
        That URL works for me with LMS 8.3.

        Sent from my Pixel 3a using Tapatalk
        Living Room: Touch or Squeezelite (Pi3B) > Topping E30 > Audiolab 8000A > Monitor Audio S5 + BK200-XLS DF
        Bedroom: Radio
        Bathroom: Radio

        Comment


          #5
          It did not work for me about 20 minutes ago ... but it does now.
          Perhaps they had some issues.

          Earlier I had a 404 response ... then did command line recall a bit later and ran same command ...

          Code:
          Input #0, mp3, from 'https://icecast.teveo.cu/9Rnrbjzq': 0B f=0/0
            Metadata:
              icy-br          : 64
              icy-description : Una emisora para todos los momentos de la vida
              icy-genre       : Alternative
              icy-name        : Radio Enciclopedia
              icy-pub         : 0
              icy-url         : https://icecast.teveo.icrt.cu/9Rnrbjzq
              StreamTitle     :
            Duration: N/A, start: 0.000000, bitrate: 64 kb/s
              Stream #0:0: Audio: mp3, 44100 Hz, stereo, fltp, 64 kb/sf=0/0
          Supporting idea that they had a problem ... their web site give a 403 / Forbidden ...
          That might be a geo-block but would not be a very polite way of letting people know - especially as Wikipedia links to it
          Last edited by Paul Webster; 2022-07-01, 15:05. Reason: Added web site info
          Paul Webster
          Author of "Now Playing" plugins covering Radio France (FIP etc), PlanetRadio (Bauer - Kiss, Absolute, Scala, JazzFM etc), KCRW, ABC Australia and CBC/Radio-Canada
          and, via the extra "Radio Now Playing" plugin lots more - see https://forums.slimdevices.com/showt...Playing-plugin

          Comment


            #6
            Originally posted by Paul Webster View Post
            It did not work for me about 20 minutes ago ... but it does now.
            Perhaps they had some issues.

            Earlier I had a 404 response ... then did command line recall a bit later and ran same command ...

            Code:
            Input #0, mp3, from 'https://icecast.teveo.cu/9Rnrbjzq': 0B f=0/0
              Metadata:
                icy-br          : 64
                icy-description : Una emisora para todos los momentos de la vida
                icy-genre       : Alternative
                icy-name        : Radio Enciclopedia
                icy-pub         : 0
                icy-url         : https://icecast.teveo.icrt.cu/9Rnrbjzq
                StreamTitle     :
              Duration: N/A, start: 0.000000, bitrate: 64 kb/s
                Stream #0:0: Audio: mp3, 44100 Hz, stereo, fltp, 64 kb/sf=0/0
            Supporting idea that they had a problem ... their web site give a 403 / Forbidden ...
            That might be a geo-block but would not be a very polite way of letting people know - especially as Wikipedia links to it
            https://www.radioenciclopedia.cu
            It played for me earlier but now it doesn't.

            Sent from my Pixel 3a using Tapatalk
            Living Room: Touch or Squeezelite (Pi3B) > Topping E30 > Audiolab 8000A > Monitor Audio S5 + BK200-XLS DF
            Bedroom: Radio
            Bathroom: Radio

            Comment


              #7
              Now it plays again. Just now I was getting "Cannot connect to server for" messages.

              Sent from my Pixel 3a using Tapatalk
              Living Room: Touch or Squeezelite (Pi3B) > Topping E30 > Audiolab 8000A > Monitor Audio S5 + BK200-XLS DF
              Bedroom: Radio
              Bathroom: Radio

              Comment

              Working...
              X