PDA

View Full Version : FLAC Cuesheets and the missing everything



John Quirk
2004-08-16, 12:23
Here we go Jason, CDImage.flac.cue:

PERFORMER "Radiobed"
TITLE "Pablo Honey FLAC"
FILE "CDImage.flac" WAVE
TRACK 01 AUDIO
TITLE "You"
PERFORMER "Radiobeds"
INDEX 00 00:00:00
INDEX 01 00:00:33
TRACK 02 AUDIO
TITLE "Creepy"
PERFORMER "Radiobeds"
INDEX 00 03:28:63
INDEX 01 03:29:08
TRACK 03 AUDIO
....etc

John

Jason Holtzapple
2004-08-16, 13:13
John Quirk wrote:
> Here we go Jason, CDImage.flac.cue:
>
> PERFORMER "Radiobed"
> TITLE "Pablo Honey FLAC"
> FILE "CDImage.flac" WAVE
> TRACK 01 AUDIO
> TITLE "You"
> PERFORMER "Radiobeds"
> INDEX 00 00:00:00
> INDEX 01 00:00:33
> TRACK 02 AUDIO
> TITLE "Creepy"
> PERFORMER "Radiobeds"
> INDEX 00 03:28:63
> INDEX 01 03:29:08
> TRACK 03 AUDIO
> ...etc

Just to be consistent for this cue file, you might want
to change Radiobed to Radiobeds for the first PERFORMER.

But the file looks fine, assuming your flac file is called
"CDImage.flac" and in the same directory as the cue file.
I don't use the .flac.cue extension (just .cue) for my cue
sheets but I don't think that matters.

If you're sure your flac file has no tags (either vorbis
or id3v1 - the server supports them both) and things still
aren't working after you wipe cache ... well I'm out of
ideas.