PDA

View Full Version : Support for single file rips with embedded CUE sheets[Was:FLAC Replaygain]



Simon Turner
2004-02-23, 14:07
> I really have no idea. Since you can stitch multiple flacs back together
> into a single full album flac losslessly, you might want to go multiple
> files for now with a cuesheet file unless you are prepared to wait an
> unknown length of time for support. This is what I'm doing.

OK, thnaks for this Jason. I have decided to rip my CDs as multiple files.
Now my problem is how to produce the correct cuesheet file to make sure i
can stitch them back up again when I need to (and if i should want to!). I
use EAC and it calls Flac for the compression. Can anyone send me a correct
cusheet file so I can see what to aim for. I don't think the ones I have
produced when I rip a CD as multiple files are any good for as they do not
seem to include any marker information and refer to individual wav files
rather than flac files (see below).

Thanks for any help
Simon Turner
Brighton UK
simon at brighton dot co dot uk


PERFORMER "Biosphere"
TITLE "Substrata (remastered)"
FILE "Biosphere - Substrata (remastered) - 01 - As the Sun Kissed the
Horizon.wav" WAVE
TRACK 01 AUDIO
TITLE "As the Sun Kissed the Horizon"
PERFORMER "Biosphere"
INDEX 01 00:00:00
FILE "Biosphere - Substrata (remastered) - 02 - Poa Alpina.wav" WAVE
TRACK 02 AUDIO
TITLE "Poa Alpina"
PERFORMER "Biosphere"
INDEX 01 00:00:00
FILE "Biosphere - Substrata (remastered) - 03 - Chukhung.wav" WAVE
TRACK 03 AUDIO
TITLE "Chukhung"
PERFORMER "Biosphere"
INDEX 01 00:00:00
FILE "Biosphere - Substrata (remastered) - 04 - The Things I Tell You.wav"
WAVE
TRACK 04 AUDIO
TITLE "The Things I Tell You"
PERFORMER "Biosphere"
INDEX 01 00:00:00
FILE "Biosphere - Substrata (remastered) - 05 - Times When I Know You'll Be
Sad.wav" WAVE
TRACK 05 AUDIO
TITLE "Times When I Know You'll Be Sad"
PERFORMER "Biosphere"
INDEX 01 00:00:00
FILE "Biosphere - Substrata (remastered) - 06 - Hyperborea.wav" WAVE
TRACK 06 AUDIO
TITLE "Hyperborea"
PERFORMER "Biosphere"
INDEX 01 00:00:00
FILE "Biosphere - Substrata (remastered) - 07 - Kobresia.wav" WAVE
TRACK 07 AUDIO
TITLE "Kobresia"
PERFORMER "Biosphere"
INDEX 01 00:00:00
FILE "Biosphere - Substrata (remastered) - 08 - Antennaria.wav" WAVE
TRACK 08 AUDIO
TITLE "Antennaria"
PERFORMER "Biosphere"
INDEX 01 00:00:00
FILE "Biosphere - Substrata (remastered) - 09 - Uva-Ursi.wav" WAVE
TRACK 09 AUDIO
TITLE "Uva-Ursi"
PERFORMER "Biosphere"
INDEX 01 00:00:00
FILE "Biosphere - Substrata (remastered) - 10 - Sphere of No-Form.wav" WAVE
TRACK 10 AUDIO
TITLE "Sphere of No-Form"
PERFORMER "Biosphere"
INDEX 01 00:00:00
FILE "Biosphere - Substrata (remastered) - 11 - Silene.wav" WAVE
TRACK 11 AUDIO
TITLE "Silene"
PERFORMER "Biosphere"
INDEX 01 00:00:00