PDA

View Full Version : NETGEAR - Wireless Digital Music Player



Tom Wynne
2004-01-09, 04:41
The LCD screen looks kinda nice though... not sure how visible across the
room. :-/

Also notice it plays WMA files - not really of interest to me but
interesting that it does. I know a lot of Slim customers seem to want this.


I'll stick with my Slim for now. :-D:-D

kdf
2004-01-09, 11:03
Quoting Tom Wynne <tomwynne (AT) yahoo (DOT) co.uk>:

>
> The LCD screen looks kinda nice though... not sure how visible across the
> room. :-/
>
> Also notice it plays WMA files - not really of interest to me but
> interesting that it does. I know a lot of Slim customers seem to want this.

Nightly build allows WMA, using ffmpeg installed in your path.

-kdf

Mark A. Aiken
2004-01-09, 11:37
Does anyone have a pointer to Windows binaries for ffmpeg?

Mark

----- Original Message -----
From: "kdf" <slim-mail (AT) deane-freeman (DOT) com>
To: "Slim Devices Discussion" <discuss (AT) lists (DOT) slimdevices.com>
Sent: Friday, January 09, 2004 10:03 AM
Subject: [slim] NETGEAR - Wireless Digital Music Player


> Quoting Tom Wynne <tomwynne (AT) yahoo (DOT) co.uk>:
>
> >
> > The LCD screen looks kinda nice though... not sure how visible across
the
> > room. :-/
> >
> > Also notice it plays WMA files - not really of interest to me but
> > interesting that it does. I know a lot of Slim customers seem to want
this.
>
> Nightly build allows WMA, using ffmpeg installed in your path.
>
> -kdf
>

Dan Sully
2004-01-09, 11:38
* Mark A. Aiken <mark_aiken (AT) hotmail (DOT) com> shaped the electrons to say...

> Does anyone have a pointer to Windows binaries for ffmpeg?

Mark - I replied to your question before as well. Check out:

http://www.dvdrhelp.com/forum/archive/t181660.html

-D
--
The floggings will continue until morale improves.

Mark A. Aiken
2004-01-09, 12:01
Sorry, Dan -- I must have missed your first response, and continued
watching hopefully for the answer for no reason ;-)

Mark

----- Original Message -----
From: "Dan Sully" <daniel (AT) electricrain (DOT) com>
To: "Slim Devices Discussion" <discuss (AT) lists (DOT) slimdevices.com>
Sent: Friday, January 09, 2004 10:38 AM
Subject: [slim] NETGEAR - Wireless Digital Music Player


> * Mark A. Aiken <mark_aiken (AT) hotmail (DOT) com> shaped the electrons to say...
>
> > Does anyone have a pointer to Windows binaries for ffmpeg?
>
> Mark - I replied to your question before as well. Check out:
>
> http://www.dvdrhelp.com/forum/archive/t181660.html
>
> -D
> --
> The floggings will continue until morale improves.
>

Mark A. Aiken
2004-01-09, 12:24
Has anyone had luck with this build of ffmpeg? It deals fine with MP3
files, which of course I don't need it for, but crashes trying to open WMA
files, which is why I'm trying to use it.

ffmpeg -i <mywmafile> -f wav \test.wav
Duration: 00:03:35.8, bitrate: 193 kb/s
Stream #0.0: Audio: wmav2, 44100 Hz, stereo, 192 kb/s
Output #0, wav, to '\test.wav':
Stream #0.0: Audio: pcm_s16le, 44100 Hz, stereo, 1411 kb/s
Stream mapping:
Stream #0.0 -> #0.0

<boom>

ffmpeg -formats mentions that this binary supposedly supports wmav1 and
wmav2 as input formats...

Mark

----- Original Message -----
From: "Dan Sully" <daniel (AT) electricrain (DOT) com>
To: "Slim Devices Discussion" <discuss (AT) lists (DOT) slimdevices.com>
Sent: Friday, January 09, 2004 10:38 AM
Subject: [slim] NETGEAR - Wireless Digital Music Player


> * Mark A. Aiken <mark_aiken (AT) hotmail (DOT) com> shaped the electrons to say...
>
> > Does anyone have a pointer to Windows binaries for ffmpeg?
>
> Mark - I replied to your question before as well. Check out:
>
> http://www.dvdrhelp.com/forum/archive/t181660.html
>
> -D
> --
> The floggings will continue until morale improves.
>